It is currently November 24th, 2017, 9:48 am Advanced search

Not Playing Recently Downloaded Videos

Discussions about Audio/ Video formats, encoding, backup and convert tips.

Not Playing Recently Downloaded Videos

Postby Caine » September 13th, 2015, 8:26 pm

Hello. The Aios seems to be having trouble playing some recently downloaded movies. Here is the report from one of them. Thank you for any help;

General
Complete name : E:\Movies (N-Z)\Pitch Perfect 2 [2015]\Pitch Perfect 2 [2015].mp4
Format : MPEG-4
Format profile : Base Media
Codec ID : isom
File size : 1.85 GiB
Duration : 1h 54mn
Overall bit rate mode : Variable
Overall bit rate : 2 305 Kbps
Encoded date : UTC 2015-08-04 10:53:28
Tagged date : UTC 2015-08-04 10:53:28

Video
ID : 1
Format : AVC
Format/Info : Advanced Video Codec
Format profile : High@L4.1
Format settings, CABAC : Yes
Format settings, ReFrames : 4 frames
Codec ID : avc1
Codec ID/Info : Advanced Video Coding
Duration : 1h 54mn
Bit rate : 2 208 Kbps
Maximum bit rate : 14.8 Mbps
Width : 1 920 pixels
Height : 1 040 pixels
Display aspect ratio : 1.85:1
Frame rate mode : Constant
Frame rate : 23.976 fps
Color space : YUV
Chroma subsampling : 4:2:0
Bit depth : 8 bits
Scan type : Progressive
Bits/(Pixel*Frame) : 0.046
Stream size : 1.77 GiB (96%)
Writing library : x264 core 123 r2189 35cf912
Encoding settings : cabac=1 / ref=4 / deblock=1:-1:-1 / analyse=0x3:0x133 / me=umh / subme=9 / psy=1 / psy_rd=1.00:0.15 / mixed_ref=1 / me_range=24 / chroma_me=1 / trellis=2 / 8x8dct=1 / cqm=0 / deadzone=21,11 / fast_pskip=0 / chroma_qp_offset=-3 / threads=12 / sliced_threads=0 / nr=0 / decimate=1 / interlaced=0 / bluray_compat=0 / constrained_intra=0 / bframes=3 / b_pyramid=2 / b_adapt=2 / b_bias=0 / direct=3 / weightb=1 / open_gop=0 / weightp=2 / keyint=250 / keyint_min=23 / scenecut=40 / intra_refresh=0 / rc_lookahead=60 / rc=2pass / mbtree=1 / bitrate=2208 / ratetol=1.0 / qcomp=0.60 / qpmin=0 / qpmax=69 / qpstep=4 / cplxblur=20.0 / qblur=0.5 / vbv_maxrate=31250 / vbv_bufsize=31250 / nal_hrd=none / ip_ratio=1.40 / aq=1:1.00
Encoded date : UTC 2015-08-04 10:53:28
Tagged date : UTC 2015-08-04 10:53:47
Color primaries : BT.709
Matrix coefficients : BT.709
Color range : Limited

Audio
ID : 2
Format : AAC
Format/Info : Advanced Audio Codec
Format profile : LC
Codec ID : 40
Duration : 1h 54mn
Bit rate mode : Variable
Bit rate : 93.8 Kbps
Maximum bit rate : 101 Kbps
Channel(s) : 2 channels
Channel positions : Front: L R
Sampling rate : 48.0 KHz
Compression mode : Lossy
Stream size : 77.0 MiB (4%)
Language : English
Encoded date : UTC 2015-08-04 10:53:46
Tagged date : UTC 2015-08-04 10:53:47
Caine
 
Posts: 5
Joined: February 20th, 2012, 9:41 pm

Re: Not Playing Recently Downloaded Videos

Postby aasoror » September 13th, 2015, 9:25 pm

This is a blasphemous encode for the AIOS to playback (squeezing 2 hours of 1080p video in <2GB file is way too much of compression for the AIOS to handle).

Assuming you have legal access rights to the file and its source, pass it through https://www.bunkus.org/videotools/mkvto ... loads.html and try re-encoding it as an MKV and see if you can get a playable file out of it.
User avatar
aasoror
Pivos Employee
 
Posts: 14221
Joined: September 26th, 2011, 5:18 pm


Return to Audio/ Video Formats & Encoding

Who is online

Users browsing this forum: No registered users and 1 guest